#TITLE:PRARNOiA(180);
#SUBTITLE:;
#ARTIST:DDR;
#TITLETRANSLIT:;
#SUBTITLETRANSLIT:;
#ARTISTTRANSLIT:;
#CREDIT:;
#BANNER:PRARNOiA(180)_logo.jpg;
#BACKGROUND:PRARNOiA(180)_bg.jpg;
#LYRICSPATH:;
#CDTITLE:Lan.png;
#MUSIC:PRARNOiA(180).mp3;
#OFFSET:-0.100;
#SAMPLESTART:33.304;
#SAMPLELENGTH:12.000;
#SELECTABLE:YES;
#BPMS:0.000=180.000;
#STOPS:;
#BGCHANGES:;
// cache tags:
#FIRSTBEAT:36.000;
#LASTBEAT:298.000;
#SONGFILENAME:Songs/Super Dancer Online/PRARNOiA(180)/PRARNOiA(180).sm;
#HASMUSIC:1;
#HASBANNER:1;
#MUSICLENGTH:100.354;
// end cache tags

//---------------dance-single - sky----------------
#NOTES:
     dance-single:
     sky:
     Medium:
     6:
     0.616,0.779,0.658,0.040,0.000,343.000,66.000,4.000,0.000,17.000:

0000
0000
0000
0000
,
0000
0000
0000
0000
,
0000
0000
0000
0000
,
0000
0000
0000
0000
,
0000
0000
0000
0000
,
0000
0000
0000
0000
,
0000
0000
0000
0000
,
0000
0000
0000
0000
,
0000
0000
0000
0000
,
1101
0000
1000
0100
0001
0000
1000
0100
,
0001
0000
0100
0000
1000
0100
0001
0100
,
0010
0100
1000
0010
0001
0000
0100
0000
,
1110
0101
0110
0110
,
1000
0001
0110
0000
1000
0100
0001
0000
,
1000
0000
0100
0010
0100
0001
1000
0000
,
0001
0100
1011
0100
,
1001
0100
0001
0000
0001
0000
0100
0000
,
1011
0100
0001
0000
1000
0100
0001
0000
,
0100
0000
1000
0100
0001
0000
1000
0000
,
0010
0000
1000
0010
0001
0000
1000
0000
,
0001
0010
1000
0000
1000
0000
0001
0000
,
0100
0000
1000
0100
0001
0000
1000
0000
,
0010
0100
0001
0100
,
1011
0000
0110
0000
0001
0100
1000
0110
,
1001
0000
0100
0000
1010
0100
0001
0000
,
0110
0001
0100
1000
,
0110
1011
0100
0010
,
0100
1011
0010
0001
,
0100
0001
1000
0000
0010
0100
0001
0000
,
1000
0100
1000
0000
0010
0001
0010
0000
,
1100
0001
1000
0000
1000
0100
0001
1000
,
0100
0000
0001
0100
1000
0000
1000
0000
,
0001
0000
1000
0100
0001
0000
0000
0000
,
1000
0100
0100
0011
0011
1000
1000
0000
,
0001
0000
1000
1000
0100
0000
0010
0010
,
1000
0000
0001
0000
0100
1000
1000
0001
,
0001
1000
0100
0001
,
1000
0000
0001
0001
0100
0000
1000
1000
,
0001
0000
0000
0100
1000
1000
0000
0100
,
0001
0001
1000
0000
0100
0000
1000
0000
,
0001
0010
0001
0000
1000
0001
1000
0000
,
1001
0100
1000
0100
0001
0000
1010
0000
,
0000
1001
0001
0100
,
1000
0000
0100
1010
0001
0000
0110
0000
,
0001
0000
1000
0011
0100
1010
0101
0000
,
0110
0000
1001
0100
0001
0000
0001
0100
,
1000
0000
0010
0001
0010
0000
1001
0100
,
1001
0000
1000
0110
1001
0000
0101
0000
,
0101
0000
1000
0000
0001
0100
1000
0000
,
1000
0010
0001
0000
0001
0100
1000
0000
,
0001
0100
1000
0000
0000
0000
0000
0000
,
0001
1000
0100
1000
,
0001
0010
0100
0000
1000
0001
1000
0000
,
1000
0100
0001
0000
0001
0000
1000
0100
,
1000
0000
1000
0100
0011
0000
0001
0000
,
1000
0000
1101
0111
1101
0000
1001
0100
,
1010
0110
1101
1000
,
0101
0011
1110
0100
,
0001
0100
2222
0000
,
3333
0000
0001
1000
1111
0000
0100
0000
,
0001
0001
0110
0000
1100
1100
0010
0000
,
0001
0001
0000
0000
1000
0000
0100
0000
,
0001
1010
0001
1000
,
1011
0100
0001
0000
1000
0100
0001
0000
,
0100
0000
0000
1000
0010
0001
1000
0100
,
0001
0000
1000
0000
0100
0000
1000
0001
,
1000
0000
0100
0010
0100
0000
0000
0000
,
1000
0100
0001
0000
1000
1000
0001
0100
,
1000
0000
0001
0001
1000
0100
0001
0000
,
1000
0100
0001
0000
0001
1000
0001
1000
,
0001
0110
1001
0110
1001
0000
0001
0010
,
0001
0000
0000
0100
1000
0100
1000
0010
,
0100
0101
1011
0101
,
1000
0000
0100
0000
1010
0110
1010
0000
,
0001
0010
0001
0000
1111
0000
0000
0000
;
